EUR 6,99
  • Tous les prix incluent la TVA.
Livraison gratuite dès EUR 25 d'achats en France métropolitaine. Détails
Il ne reste plus que 3 exemplaire(s) en stock (d'autres exemplaires sont en cours d'acheminement).
Expédié et vendu par Amazon. Emballage cadeau disponible.
Vous l'avez déjà ? Vendez sur Amazon
Egalement disponible en MP3
Album MP3 à EUR 10,99

Continuo

4.4 étoiles sur 5 9 commentaires client

Note: Cet article est éligible à la livraison en points de collecte. Détails
Récupérer votre colis où vous voulez quand vous voulez.
  • Choisissez parmi 17 000 points de collecte en France
  • Les membres du programme Amazon Premium bénéficient de livraison gratuites illimitées
Comment commander vers un point de collecte ?
  1. Trouvez votre point de collecte et ajoutez-le à votre carnet d’adresses
  2. Sélectionnez cette adresse lors de votre commande
Plus d’informations
15 neufs à partir de EUR 6,99 2 d'occasion à partir de EUR 25,00
inclut GRATUITEMENT la version MP3 de cet album.
Uniquement pour les albums vendus par Amazon EU Sarl, hors cadeaux. Voir Conditions pour plus d'informations, notamment sur les coûts de la version MP3 en cas d'annulation de commande.
Passez cette commande pour sauvegarder la version numérique de cet album dans votre bibliothèque Amazon Music. Vendu par Amazon EU S.à r.l.
Promotions et bons plans musique CD Vinyle Promotions et bons plans musique CD Vinyle


Offres spéciales et liens associés


Page Artiste Avishai Cohen


Produits fréquemment achetés ensemble

  • Continuo
  • +
  • Seven Seas
  • +
  • From Darkness
Prix total: EUR 20,97
Acheter les articles sélectionnés ensemble

Détails sur le produit

  • CD (23 décembre 2013)
  • Nombre de disques: 1
  • Label: Wea
  • ASIN : B001QSDPV6
  • Autres éditions : CD  |  Téléchargement MP3
  • Moyenne des commentaires client : 4.4 étoiles sur 5 9 commentaires client
  • Classement des meilleures ventes d'Amazon: 8.017 en Musique (Voir les 100 premiers en Musique)
  • Voulez-vous nous parler de prix plus bas?
    Si vous vendez ce produit, souhaitez-vous suggérer des mises à jour par l'intermédiaire du support vendeur ?

  • Ecouter les extraits (Extrait)
1
30
5:14
Ecouter Acheter : EUR 1,29
 
2
30
3:57
Ecouter Acheter : EUR 1,29
 
3
30
4:58
Ecouter Acheter : EUR 1,29
 
4
30
5:15
Ecouter Acheter : EUR 1,29
 
5
30
5:16
Ecouter Acheter : EUR 1,29
 
6
30
7:30
Ecouter Acheter : EUR 1,29
 
7
30
3:16
Ecouter Acheter : EUR 1,29
 
8
30
5:20
Ecouter Acheter : EUR 1,29
 
9
30
5:31
Ecouter Acheter : EUR 1,29
 
10
30
4:11
Ecouter Acheter : EUR 1,29
 

Descriptions du produit

COHEN AVISHAI CONTINUO


Quels sont les autres articles que les clients achètent après avoir regardé cet article?

Commentaires en ligne

4.4 étoiles sur 5
Partagez votre opinion avec les autres clients

Meilleurs commentaires des clients

Par mp le 8 août 2007
Format: CD
magique..on se laisse porter par les mélodies et le son si prenant du piano ( parfois si classique) et de la contre basse...
on écoute , réécoute sans jamais se lasser, cette musique
rythmée, souple, douce.
Remarque sur ce commentaire 15 personnes ont trouvé cela utile. Avez-vous trouvé ce commentaire utile ? Oui Non Commentaire en cours d'envoi...
Merci pour votre commentaire.
Désolé, nous n'avons pas réussi à enregistrer votre vote. Veuillez réessayer
Signaler un abus
Format: CD
Avishai Cohen nous offre dans ce dernier opus l'étendue de son talent. Yosvany terry n'est plus la pour apporter sa fougue comme lors des albums précédents, mais cette absence est bientot masquée par la profondeur et la richesse musicale de ce trio qui, a n'en pas douter, continuera a faire parler de lui.
Remarque sur ce commentaire 12 personnes ont trouvé cela utile. Avez-vous trouvé ce commentaire utile ? Oui Non Commentaire en cours d'envoi...
Merci pour votre commentaire.
Désolé, nous n'avons pas réussi à enregistrer votre vote. Veuillez réessayer
Signaler un abus
Format: CD
C'est un très bel album instrumental, avec un seul défaut majeur dont je croyais le jazz et le classique épargnés : la guerre du volume qui massacre la dynamique depuis la fin des années 90. Les mêmes ingénieurs du son qui nous cassent les oreilles (et les pieds) en mettant le pop, rock et hip-hop à fond les manettes, comme des sales gosses ravis d'emmerder les parents, ont sévi sur cet album, qu'on en juge :

DR Peak RMS Filename
----------------------------------------------------------------------------------------------

DR6 -0.14 dB -8.24 dB 01 Nu Nu.m4a
DR8 -0.14 dB -10.86 dB 02 Elli.m4a
DR6 -0.14 dB -8.66 dB 03 One for Mark.m4a
DR7 -0.14 dB -10.03 dB 04 Ani Maamin.m4a
DR7 -0.14 dB -9.23 dB 05 Samuel.m4a
DR6 -0.14 dB -8.46 dB 06 Emotional Storm.m4a
DR9 -0.14 dB -10.88 dB 07 Calm.m4a
DR6 -0.14 dB -8.67 dB 08 Arava.m4a
DR5 -0.14 dB -7.35 dB 09 Smash.m4a
DR8 -0.14 dB -10.37 dB 10 Continuo.m4a
----------------------------------------------------------------------------------------------

Number of files: 10
Official DR value: DR7

Mais j'ai espoir qu'Avishai Cohen ait réglé le problème, car mon autre CD de lui, Aurora, sorti quatre ans plus tard, est revenu à une moyenne de DR12 qui lui vaut une mention "Assez bien". Bref, je vais continuer d'explorer son catalogue gratuitement sur Deezer, avant d'acheter ce que j'aime, comme tous ceux qui gagnent leur vie devraient le faire.
Remarque sur ce commentaire 2 personnes ont trouvé cela utile. Avez-vous trouvé ce commentaire utile ? Oui Non Commentaire en cours d'envoi...
Merci pour votre commentaire.
Désolé, nous n'avons pas réussi à enregistrer votre vote. Veuillez réessayer
Signaler un abus
Format: CD Achat vérifié
Mon album préféré de cet artiste qui gagne à être connu pour son originalité était Seven waves.

Je viens d'acheter Continuo, et j'ai été également emballée.

Avishai Cohen est un artiste qui se renouvelle à chaque album, et aucun d'entre eux ne se ressemblent, mais on sent la patte de l'artiste.

De plus il a un excellent pianiste qui l'accompagne.

Je recommande vivement cet album aux amateurs un peu jazzi !
Remarque sur ce commentaire Avez-vous trouvé ce commentaire utile ? Oui Non Commentaire en cours d'envoi...
Merci pour votre commentaire.
Désolé, nous n'avons pas réussi à enregistrer votre vote. Veuillez réessayer
Signaler un abus
Format: CD
Un peu trop free jazz? Dit Debernardi !C'est qu'il ne connaît pas ou mal le free jazz , je l'invite à écouter des musiciens comme Ornette Coleman, Sun râ, Cecyl Taylor ou Don Cherry, il entendra la différence. Pour ce qui est de "Continuo", je trouve cet album magnifique, des mélodies soignées avec un air de classique qui n'est pas sans rappeler J S Bach. A écouter sans modération.
Remarque sur ce commentaire 2 personnes ont trouvé cela utile. Avez-vous trouvé ce commentaire utile ? Oui Non Commentaire en cours d'envoi...
Merci pour votre commentaire.
Désolé, nous n'avons pas réussi à enregistrer votre vote. Veuillez réessayer
Signaler un abus

Vous souhaitez découvrir plus de produits ? Consultez cette page pour voir plus : avishai cohen

Rechercher des articles similaires par rubrique